Los Gipsy Kings (2019)[T.5][HDTV 720p][Castellano][Reality][03/--][1,7GB][VS]
Gracias Gracias:  0
Me gusta Me gusta:  0
No me gusta No me gusta:  0
Resultados 1 al 4 de 4

Tema: Los Gipsy Kings (2019)[T.5][HDTV 720p][Castellano][Reality][03/--][1,7GB][VS]

  1. #1
    Mostacilla Avatar de parrix
    Fecha de ingreso
    15 mar, 19
    Mensajes
    70
    Post Thanks / Like
    Mentioned
    0 Post(s)
    Tagged
    0 Thread(s)
    Quoted
    0 Post(s)
    Poder de reputación
    0

    Predeterminado Los Gipsy Kings (2019)[T.5][HDTV 720p][Castellano][Reality][03/--][1,7GB][VS]










    Género Docu-reality
    Narrador Teté Delgado
    País de origen España
    Idioma(s) Español
    Productores La Competencia Producciones
    Productores ejecutivos Mediaset España
    Dirección Jacobo Eireos





    Calidad: HDTV 720p
    Formato: MKV
    Resolución: 1280x720p
    Video: AVC
    Audio: Castellano AAC
    Tamaño: 1,76 GB



    MediaInfo:

    [SPOILER]

    Código:
    General
    Complete name               : C:\Users\User\Desktop\Los.Gipsy.Kings.72Op.5x01.mkv
    Format                      : MPEG-4
    Format profile              : Base Media
    Codec ID                    : isom (isom/iso2/avc1/mp41)
    File size                   : 1.76 GiB
    Duration                    : 1 h 32 min
    Overall bit rate mode       : Constant
    Overall bit rate            : 2 731 kb/s
    Writing application         : Lavf58.20.100
    FileExtension_Invalid       : mov mp4 m4v m4a m4b m4p 3ga 3gpa 3gpp 3gp 3gpp2 3g2 k3g jpm jpx mqv ismv isma ismt f4a f4b f4v
    
    Video
    ID                          : 1
    Format                      : AVC
    Format/Info                 : Advanced Video Codec
    Format profile              : [email protected]
    Format settings             : 1 Ref Frames
    Format settings, CABAC      : No
    Format settings, RefFrames  : 1 frame
    Codec ID                    : avc1
    Codec ID/Info               : Advanced Video Coding
    Duration                    : 1 h 32 min
    Bit rate mode               : Constant
    Bit rate                    : 2 600 kb/s
    Width                       : 1 280 pixels
    Height                      : 720 pixels
    Display aspect ratio        : 16:9
    Frame rate mode             : Constant
    Frame rate                  : 25.000 FPS
    Standard                    : PAL
    Color space                 : YUV
    Chroma subsampling          : 4:2:0
    Bit depth                   : 8 bits
    Scan type                   : Progressive
    Bits/(Pixel*Frame)          : 0.113
    Stream size                 : 1.68 GiB (95%)
    Color range                 : Limited
    Color primaries             : BT.601 PAL
    Transfer characteristics    : BT.601
    Matrix coefficients         : BT.470 System B, BT.470 System G
    
    Audio
    ID                          : 2
    Format                      : AAC
    Format/Info                 : Advanced Audio Codec
    Format profile              : LC
    Codec ID                    : mp4a-40-2
    Duration                    : 1 h 32 min
    Bit rate mode               : Constant
    Bit rate                    : 126 kb/s
    Channel(s)                  : 2 channels
    Channel positions           : Front: L R
    Sampling rate               : 44.1 kHz
    Frame rate                  : 43.066 FPS (1024 SPF)
    Compression mode            : Lossy
    Stream size                 : 83.0 MiB (5%)
    Default                     : Yes
    Alternate group             : 1
    [/SPOILER]



    Descomprimir con winrar, 7zip o programa similar.







    Los Gipsy Kings es un programa de televisión de la productora La Competencia Producciones para el canal de televisión Cuatro. Su estreno tuvo lugar el domingo, 8 de febrero de 2015.

    TEMPORADA 5: Nada se les resiste y nos lo demostraron en la temporada pasada pero, ¿qué les deparará la próxima? Permanece atento porque el programa más loco de la televisión regresa muy pronto a Cuatro.










    Descarga todo de un servidor FREE + 1 parte NO FREE

    Para descargar tener abierto JDownloader v2, Mipony o programa similar














    5x01:

    Código:
    https://safelinking.net/GY7zbb8

    5x02:

    Código:
    https://safelinking.net/Ep8E4FY

    5x03:

    Código:
    https://safelinking.net/AXb25bb


    Visita mi perfil para ver todos mis aportes





  2. #2
    Mostacilla Avatar de parrix
    Fecha de ingreso
    15 mar, 19
    Mensajes
    70
    Post Thanks / Like
    Mentioned
    0 Post(s)
    Tagged
    0 Thread(s)
    Quoted
    0 Post(s)
    Poder de reputación
    0

    Predeterminado

    5x04:

    Código:
    https://safelinking.net/SKggYTs

  3. #3
    Mostacilla Avatar de parrix
    Fecha de ingreso
    15 mar, 19
    Mensajes
    70
    Post Thanks / Like
    Mentioned
    0 Post(s)
    Tagged
    0 Thread(s)
    Quoted
    0 Post(s)
    Poder de reputación
    0

    Predeterminado

    5x05:

    Código:
    https://safelinking.net/dXTrtdW

  4. #4
    Mostacilla Avatar de parrix
    Fecha de ingreso
    15 mar, 19
    Mensajes
    70
    Post Thanks / Like
    Mentioned
    0 Post(s)
    Tagged
    0 Thread(s)
    Quoted
    0 Post(s)
    Poder de reputación
    0

    Predeterminado

    5x06:

    Código:
    https://safelinking.net/x6GyRjA

Información de tema

Usuarios viendo este tema

Actualmente hay 1 usuarios viendo este tema. (0 miembros y 1 visitantes)

User Tag List

Marcadores

Permisos de publicación

  • No puedes crear nuevos temas
  • No puedes responder temas
  • No puedes subir archivos adjuntos
  • No puedes editar tus mensajes
  •