La caza. Monteperdido (2019)[T.1][HDTV 720p][Castellano][Drama/Crimen][1/--][2.7GB]
Gracias Gracias:  0
Me gusta Me gusta:  0
No me gusta No me gusta:  0
Resultados 1 al 4 de 4

Tema: La caza. Monteperdido (2019)[T.1][HDTV 720p][Castellano][Drama/Crimen][1/--][2.7GB]

  1. #1
    Mostacilla Avatar de parrix
    Fecha de ingreso
    15 mar, 19
    Mensajes
    70
    Post Thanks / Like
    Mentioned
    0 Post(s)
    Tagged
    0 Thread(s)
    Quoted
    0 Post(s)
    Poder de reputación
    0

    Predeterminado La caza. Monteperdido (2019)[T.1][HDTV 720p][Castellano][Drama/Crimen][1/--][2.7GB]










    Título original La caza. Monteperdido (TV Series)
    Año 2019
    País España
    Dirección Salvador García Ruiz, Alvaro Ron
    Guion Jorge Díaz, Agustín Martínez, Antonio Mercero, Miguel Sáez
    Reparto Megan Montaner, Alain Hernández, Francis Lorenzo, David Solans, Pablo Derqui, Ester Expósito, Mar Sodupe, Jordi Sánchez, Bea Segura, Carla Díaz, Juan Díaz, Jorge Bosch, Beatriz Carvajal, Patxi Freytez, Laura Moray, Chechu Salgado
    Productora DLO Producciones / Televisión Española (TVE)
    Género Serie de TV. Drama | Secuestros / Desapariciones. Crimen





    Calidad: HDTV 720p
    Formato: MKV
    Resolución: 1280x720p
    Video: AVC x264
    Audio: Castellano AC3 2.0 Stereo
    Tamaño: 2,74 GB

    Descomprimir con winrar, 7zip o programa similar.



    MediaInfo:

    [SPOILER]

    Código:
    Complete name               : C:\Users\User\Desktop\La.Caza.M0nteperdid0.1x01.72O.mkv
    Format                      : Matroska
    Format version              : Version 2
    File size                   : 2.75 GiB
    Duration                    : 1 h 14 min
    Overall bit rate            : 5 312 kb/s
    MUXER                       : Lavf57.28.100
    
    Video
    ID                          : 1
    Format                      : AVC
    Format/Info                 : Advanced Video Codec
    Format profile              : [email protected]
    Format settings             : CABAC / 2 Ref Frames
    Format settings, CABAC      : Yes
    Format settings, RefFrames  : 2 frames
    Codec ID                    : V_MPEG4/ISO/AVC
    Duration                    : 1 h 14 min
    Bit rate                    : 5 000 kb/s
    Width                       : 1 280 pixels
    Height                      : 720 pixels
    Display aspect ratio        : 16:9
    Frame rate mode             : Constant
    Frame rate                  : 25.000 FPS
    Color space                 : YUV
    Chroma subsampling          : 4:2:0
    Bit depth                   : 8 bits
    Scan type                   : Progressive
    Bits/(Pixel*Frame)          : 0.217
    Stream size                 : 2.53 GiB (92%)
    Writing library             : x264 core 77
    Encoding settings           : cabac=1 / ref=1 / deblock=1:0:0 / analyse=0x1:0x11 / me=hex / subme=5 / psy=1 / psy_rd=0.0:0.0 / mixed_ref=0 / me_range=16 / chroma_me=1 / trellis=1 / 8x8dct=0 / cqm=0 / deadzone=21,11 / chroma_qp_offset=0 / threads=8 / nr=0 / decimate=1 / mbaff=0 / constrained_intra=0 / bframes=2 / b_pyramid=0 / b_adapt=1 / b_bias=0 / direct=1 / wpredb=0 / keyint=12 / keyint_min=7 / scenecut=40 / rc_lookahead=12 / rc=abr / mbtree=1 / bitrate=5000 / ratetol=1.0 / qcomp=0.60 / qpmin=10 / qpmax=51 / qpstep=4 / ip_ratio=1.41 / aq=1:1.00
    Default                     : Yes
    Forced                      : No
    
    Audio
    ID                          : 2
    Format                      : MPEG Audio
    Format version              : Version 1
    Format profile              : Layer 3
    Format settings             : Joint stereo
    Mode                        : Joint stereo
    Codec ID                    : A_MPEG/L3
    Codec ID/Hint               : MP3
    Duration                    : 1 h 14 min
    Bit rate mode               : Constant
    Bit rate                    : 320 kb/s
    Channel(s)                  : 2 channels
    Sampling rate               : 44.1 kHz
    Compression mode            : Lossy
    Delay relative to video     : -40 ms
    Stream size                 : 170 MiB (6%)
    Writing library             : LAME3.98.2
    Default                     : Yes
    Forced                      : No
    [/SPOILER]





    Hace cinco años, dos niñas de once años, Ana y Lucía, desaparecieron en Monteperdido, un pueblo del Pirineo. Tras una extensa búsqueda, el caso nunca se resolvió y los vecinos quedaron marcados por la tragedia. Ahora, una de las niñas, Ana, ha regresado. Las autoridades se volcarán con el caso para encontrar a Lucía, pero los habitantes de Monteperdido, incluso las familias de las niñas atrapadas en sus secretos y mentiras, no se lo pondrán nada fácil a los investigadores. Algo tienen claro: el monstruo está entre ellos y los agentes iniciarán una caza que pondrá en peligro sus propias vidas.










    Descarga todo de un servidor FREE + 1 parte NO FREE

    Para descargar tener abierto JDownloader v2, Mipony o programa similar
















    1x01:



    Código:
    https://safelinking.net/1QQbGDF

    Visita mi perfil para ver todos mis aportes





  2. #2
    Mostacilla Avatar de parrix
    Fecha de ingreso
    15 mar, 19
    Mensajes
    70
    Post Thanks / Like
    Mentioned
    0 Post(s)
    Tagged
    0 Thread(s)
    Quoted
    0 Post(s)
    Poder de reputación
    0

    Predeterminado



    1x02:



    Código:
    https://safelinking.net/YZx1lyS

  3. #3
    Mostacilla Avatar de parrix
    Fecha de ingreso
    15 mar, 19
    Mensajes
    70
    Post Thanks / Like
    Mentioned
    0 Post(s)
    Tagged
    0 Thread(s)
    Quoted
    0 Post(s)
    Poder de reputación
    0

    Predeterminado



    1x03:



    Código:
    https://safelinking.net/DSsWiUy

  4. #4
    Mostacilla Avatar de parrix
    Fecha de ingreso
    15 mar, 19
    Mensajes
    70
    Post Thanks / Like
    Mentioned
    0 Post(s)
    Tagged
    0 Thread(s)
    Quoted
    0 Post(s)
    Poder de reputación
    0

    Predeterminado



    1x04:



    Código:
    https://safelinking.net/N6f8sdX

Información de tema

Usuarios viendo este tema

Actualmente hay 1 usuarios viendo este tema. (0 miembros y 1 visitantes)

Temas similares

  1. Respuestas: 3
    Último mensaje: 15/04/2019, 15:42
  2. Respuestas: 3
    Último mensaje: 14/04/2019, 14:37
  3. Respuestas: 0
    Último mensaje: 22/08/2018, 21:23
  4. [RS]Survivor.S20E10.720p.HDTV.x264-ORENJI
    Por Russell.H en el foro Cine y TV
    Respuestas: 1
    Último mensaje: 15/05/2010, 01:30

User Tag List

Marcadores

Permisos de publicación

  • No puedes crear nuevos temas
  • No puedes responder temas
  • No puedes subir archivos adjuntos
  • No puedes editar tus mensajes
  •