Título original: O sabor das margaridas
Año: 2018
Duración: 60 min.
País : España
Director: Miguel Conde
Guión: Nerea Barros, Tony Salgado, María Mera, Ricardo de Barreiro
Música: Matt Mariano, Zach Stretten-Carlson
Fotografía: Doug Emmett
Reparto: Boris Mojsovski, Brendan Steacy
Productora: BCRTVG / CTV, Distribuida por Netflix
Género: Thriller | Policíaco. Serie de TV






Calidad: MicroHD 720p
Formato: KMV
Resolución: 1280x720p
Video: AVC x264
Audio: Castellano AC3 48000 Hz
Tamaño: 1 GB
Subtítulos: Castellano



MediaInfo:


Código:
General
Unique ID                                : 291320812242257231329453707300549685603 (0xDB2A58FA7B7BE67A9E51B1A5C427F163)
Complete name                            : /El.sab0r.de.las.margaritas.1x01.M72O.mkv
Format                                   : Matroska
Format version                           : Version 4
File size                                : 1 011 MiB
Duration                                 : 1 h 10 min
Overall bit rate mode                    : Variable
Overall bit rate                         : 1 996 kb/s
Encoded date                             : UTC 2019-03-31 16:10:58
Writing application                      : mkvmerge v25.0.0 ('Prog Noir') 32-bit
Writing library                          : libebml v1.3.6 + libmatroska v1.4.9

Video
ID                                       : 1
Format                                   : AVC
Format/Info                              : Advanced Video Codec
Format profile                           : [email protected]
Format settings                          : CABAC / 3 Ref Frames
Format settings, CABAC                   : Yes
Format settings, ReFrames                : 3 frames
Codec ID                                 : V_MPEG4/ISO/AVC
Duration                                 : 1 h 10 min
Bit rate mode                            : Variable
Bit rate                                 : 1 870 kb/s
Maximum bit rate                         : 2 805 kb/s
Width                                    : 1 280 pixels
Height                                   : 720 pixels
Display aspect ratio                     : 16:9
Frame rate mode                          : Constant
Frame rate                               : 25.000 FPS
Color space                              : YUV
Chroma subsampling                       : 4:2:0
Bit depth                                : 8 bits
Scan type                                : Progressive
Bits/(Pixel*Frame)                       : 0.081
Stream size                              : 945 MiB (93%)
Writing library                          : x264 core 148 r2715 7e75228
Encoding settings                        : cabac=1 / ref=3 / deblock=1:0:0 / analyse=0x1:0x111 / me=umh / subme=10 / psy=1 / psy_rd=1.00:0.00 / mixed_ref=1 / me_range=24 / chroma_me=1 / trellis=2 / 8x8dct=0 / cqm=0 / deadzone=21,11 / fast_pskip=1 / chroma_qp_offset=-2 / threads=6 / lookahead_threads=1 / sliced_threads=0 / nr=0 / decimate=1 / interlaced=0 / bluray_compat=0 / stitchable=1 / constrained_intra=0 / bframes=2 / b_pyramid=0 / b_adapt=2 / b_bias=0 / direct=3 / weightb=1 / open_gop=0 / weightp=2 / keyint=50 / keyint_min=26 / scenecut=0 / intra_refresh=0 / rc_lookahead=50 / rc=2pass / mbtree=1 / bitrate=1870 / ratetol=1.0 / qcomp=0.50 / qpmin=6 / qpmax=51 / qpstep=4 / cplxblur=20.0 / qblur=0.5 / vbv_maxrate=2805 / vbv_bufsize=3740 / nal_hrd=vbr / filler=0 / ip_ratio=1.40 / aq=1:1.00
Default                                  : Yes
Forced                                   : No

Audio
ID                                       : 2
Format                                   : E-AC-3
Format/Info                              : Enhanced AC-3
Commercial name                          : Dolby Digital Plus
Codec ID                                 : A_EAC3
Duration                                 : 1 h 10 min
Bit rate mode                            : Constant
Bit rate                                 : 128 kb/s
Channel(s)                               : 2 channels
Channel layout                           : L R
Sampling rate                            : 48.0 kHz
Frame rate                               : 31.250 FPS (1536 SPF)
Compression mode                         : Lossy
Stream size                              : 64.8 MiB (6%)
Title                                    : Castellano
Language                                 : Spanish
Service kind                             : Complete Main
Default                                  : Yes
Forced                                   : No

Text #1
ID                                       : 3
Format                                   : UTF-8
Codec ID                                 : S_TEXT/UTF8
Codec ID/Info                            : UTF-8 Plain Text
Duration                                 : 1 h 10 min
Bit rate                                 : 2 b/s
Count of elements                        : 37
Stream size                              : 1.19 KiB (0%)
Title                                    : Castellano [Forzados]
Language                                 : Spanish
Default                                  : No
Forced                                   : Yes

Text #2
ID                                       : 4
Format                                   : UTF-8
Codec ID                                 : S_TEXT/UTF8
Codec ID/Info                            : UTF-8 Plain Text
Duration                                 : 1 h 10 min
Bit rate                                 : 53 b/s
Count of elements                        : 763
Stream size                              : 27.5 KiB (0%)
Title                                    : Castellano [Completos]
Language                                 : Spanish
Default                                  : No
Forced                                   : No

Text #3
ID                                       : 5
Format                                   : UTF-8
Codec ID                                 : S_TEXT/UTF8
Codec ID/Info                            : UTF-8 Plain Text
Duration                                 : 1 h 10 min
Bit rate                                 : 55 b/s
Count of elements                        : 925
Stream size                              : 28.8 KiB (0%)
Title                                    : Castellano [Para sordos]
Language                                 : Spanish
Default                                  : No
Forced                                   : No



Descomprimir con winrar, 7zip o programa similar.







Una fría noche de 2010, unos días antes de la llegada del Papa Benedito XVI a Santiago de Compostela, Marta Labrada desaparece en extrañas circunstancias en una gasolinera de Murias, un pequeño pueblo de Galicia. El miedo a que el caso salte a los medios de comunicación obliga a intervenir a la Guardia Civil, enviando a la inspectora Rosa Vargas, que tiene que actuar pronto.









Descarga todo de un servidor FREE + 1 parte NO FREE

Para descargar tener abierto JDownloader v2, Mipony o programa similar














Código:
https://safelinking.net/RAXpmKP

Visita mi perfil para ver todos mis aportes