Título original: After Life
Año: 2018
Duración: 30 min.
País : Reino Unido
Director: Ricky Gervais (Creator), Ricky Gervais
Guión: Ricky Gervais
Música: Matt Mariano, Zach Stretten-Carlson
Fotografía: Doug Emmett
Reparto: Ricky Gervais, Jo Hartley, Tony Way, Ashley Jensen, Tom Basden, David Bradley, Roisin Conaty, Kerry Godliman, Paul Kaye, Diane Morgan, Joe Wilkinson, Penelope Wilton, Tim Plester, Tommy Finnegan, Laura Patch, Mandeep Dhillon, David Earl, Ethan Lawrence, Simon North, Ty Hurley
Productora: Distribuida por Netflix
Género: Serie de TV. Comedia. Drama | Miniserie de TV





Calidad: MicroHD 720p
Formato: MKV
Resolución: 1280x720p
Video: AVC x264
Audio: Castellano AC3 640kbps
Tamaño: 600 MB Apróx.
Subtítulos: Castellano, Inglés



MediaInfo:


Código:
General
Unique ID                   : 170811100309072475992725141354965075208 (0x8081057362C339B9B94E03AD71038508)
Complete name               : \After.Life.1x01.M72O.mkv
Format                      : Matroska
Format version              : Version 4 / Version 2
File size                   : 656 MiB
Duration                    : 28 min 34 s
Overall bit rate mode       : Variable
Overall bit rate            : 3 212 kb/s
Movie name                  : After.Life.1x01.M72O.mkv
Encoded date                : UTC 2019-04-02 03:02:01
Writing application         : mkvmerge v16.0.0 ('Protest') 32-bit
Writing library             : libebml v1.3.5 + libmatroska v1.4.8

Video
ID                          : 1
Format                      : AVC
Format/Info                 : Advanced Video Codec
Format profile              : [email protected]
Format settings             : CABAC / 4 Ref Frames
Format settings, CABAC      : Yes
Format settings, RefFrames  : 4 frames
Codec ID                    : V_MPEG4/ISO/AVC
Duration                    : 28 min 34 s
Bit rate mode               : Variable
Bit rate                    : 1 800 kb/s
Maximum bit rate            : 50.0 Mb/s
Width                       : 1 280 pixels
Height                      : 720 pixels
Display aspect ratio        : 16:9
Frame rate mode             : Constant
Frame rate                  : 25.000 FPS
Color space                 : YUV
Chroma subsampling          : 4:2:0
Bit depth                   : 8 bits
Scan type                   : Progressive
Bits/(Pixel*Frame)          : 0.078
Stream size                 : 368 MiB (56%)
Writing library             : x264 core 157 r2935 545de2f
Encoding settings           : cabac=1 / ref=4 / deblock=1:1:1 / analyse=0x3:0x133 / me=hex / subme=7 / psy=1 / psy_rd=0.40:0.00 / mixed_ref=1 / me_range=16 / chroma_me=1 / trellis=1 / 8x8dct=1 / cqm=0 / deadzone=21,11 / fast_pskip=0 / chroma_qp_offset=-2 / threads=18 / lookahead_threads=3 / sliced_threads=0 / nr=0 / decimate=1 / interlaced=0 / bluray_compat=0 / constrained_intra=0 / bframes=3 / b_pyramid=2 / b_adapt=1 / b_bias=0 / direct=3 / weightb=1 / open_gop=0 / weightp=2 / keyint=250 / keyint_min=25 / scenecut=40 / intra_refresh=0 / rc_lookahead=50 / rc=2pass / mbtree=1 / bitrate=1800 / ratetol=1.0 / qcomp=0.60 / qpmin=0 / qpmax=69 / qpstep=4 / cplxblur=20.0 / qblur=0.5 / vbv_maxrate=50000 / vbv_bufsize=62500 / nal_hrd=vbr / filler=0 / ip_ratio=1.40 / aq=1:1.00
Language                    : English
Default                     : Yes
Forced                      : No
Color range                 : Limited
Color primaries             : BT.709
Transfer characteristics    : BT.709
Matrix coefficients         : BT.709

Audio #1
ID                          : 2
Format                      : AC-3
Format/Info                 : Audio Coding 3
Format settings, Endianness : Big
Codec ID                    : A_AC3
Duration                    : 28 min 34 s
Bit rate mode               : Constant
Bit rate                    : 384 kb/s
Channel(s)                  : 6 channels
Channel positions           : Front: L C R, Side: L R, LFE
Sampling rate               : 48.0 kHz
Frame rate                  : 31.250 FPS (1536 SPF)
Bit depth                   : 16 bits
Compression mode            : Lossy
Stream size                 : 78.5 MiB (12%)
Title                       : Castellano
Language                    : Spanish
Service kind                : Complete Main
Default                     : Yes
Forced                      : No

Audio #2
ID                          : 3
Format                      : AC-3
Format/Info                 : Audio Coding 3
Format settings, Endianness : Big
Codec ID                    : A_AC3
Duration                    : 28 min 34 s
Bit rate mode               : Constant
Bit rate                    : 384 kb/s
Channel(s)                  : 6 channels
Channel positions           : Front: L C R, Side: L R, LFE
Sampling rate               : 48.0 kHz
Frame rate                  : 31.250 FPS (1536 SPF)
Bit depth                   : 16 bits
Compression mode            : Lossy
Stream size                 : 78.5 MiB (12%)
Title                       : Inglés
Language                    : English
Service kind                : Complete Main
Default                     : No
Forced                      : No

Audio #3
ID                          : 4
Format                      : AC-3
Format/Info                 : Audio Coding 3
Format settings, Endianness : Big
Codec ID                    : A_AC3
Duration                    : 28 min 34 s
Bit rate mode               : Constant
Bit rate                    : 640 kb/s
Channel(s)                  : 2 channels
Channel positions           : Front: L R
Sampling rate               : 44.1 kHz
Frame rate                  : 28.711 FPS (1536 SPF)
Bit depth                   : 16 bits
Compression mode            : Lossy
Stream size                 : 131 MiB (20%)
Service kind                : Complete Main
Default                     : No
Forced                      : No

Text #1
ID                          : 5
Format                      : UTF-8
Codec ID                    : S_TEXT/UTF8
Codec ID/Info               : UTF-8 Plain Text
Duration                    : 27 min 36 s
Bit rate                    : 0 b/s
Count of elements           : 6
Stream size                 : 205 Bytes (0%)
Title                       : Castellano [Forzados]
Language                    : Spanish
Default                     : No
Forced                      : Yes

Text #2
ID                          : 6
Format                      : UTF-8
Codec ID                    : S_TEXT/UTF8
Codec ID/Info               : UTF-8 Plain Text
Duration                    : 27 min 36 s
Bit rate                    : 69 b/s
Count of elements           : 493
Stream size                 : 14.0 KiB (0%)
Title                       : Castellano [Completos]
Language                    : Spanish
Default                     : No
Forced                      : No

Text #3
ID                          : 7
Format                      : UTF-8
Codec ID                    : S_TEXT/UTF8
Codec ID/Info               : UTF-8 Plain Text
Duration                    : 27 min 29 s
Bit rate                    : 88 b/s
Count of elements           : 585
Stream size                 : 17.8 KiB (0%)
Title                       : Inglés [Para sordos]
Language                    : English
Default                     : No
Forced                      : No



Descomprimir con winrar, 7zip o programa similar.







Tony llevaba una vida perfecta. Pero tras el repentino fallecimiento de su esposa, en vez de suicidarse decide llevar al límite lo que se puede o no hacer y empieza a hacer y decir todo lo que le da la gana. Algo que será complicado cuando todo el mundo decide intentar salvar a la buena persona que conocían.









Descarga todo de un servidor FREE + 1 parte NO FREE

Para descargar tener abierto JDownloader v2, Mipony o programa similar














Código:
https://safelinking.net/y8B3WWf

Visita mi perfil para ver todos mis aportes