Título original: Waco
Año: 2018
Duración: 47min.
País : Estados Unidos
Director: John Erick Dowdle, Dennie Gordon
Guión: Drew Dowdle, John Erick Dowdle, Salvatore Stabile
Música: Marco Beltrami
Fotografía: Todd McMullen
Reparto: Michael Shannon, Taylor Kitsch, John Leguizamo, Andrea Riseborough, Rory Culkin, Melissa Benoist, Paul Sparks, Shea Whigham, Julia Garner, Eric Lange, Sarah Minnich, Steven Culp, Camryn Manheim, Annika Marks, Demore Barnes, Christopher Stanley, Barbie Robertson, Stephanie Kurtzuba, Andy Umberger, Kenneth Miller, Duncan Joiner, Cassandra Rochelle Fetters, Jules Bruff, Howard Ferguson Jr., Hans Christopher, Richard Beal, Eli Goodman, David Grant Wright, Rich Ting, Jermaine Washington, Darcel Danielle
Productora: The Weinstein Company
Género: Serie de TV. Drama. Acción | Miniserie de TV. Basado en hechos reales. Sectas. Años 90





Calidad: MicroHD 720p
Formato: MKV
Resolución: 1280x720p
Video: AVC H264
Audio: Castellano AC3 48000 Hz
Tamaño: 700 MB
Subtítulos: No



MediaInfo:

Código:
General
Unique ID                                : 230165310050560939469113796468123614019 (0xAD2839ED643088FCC04568632A47BB43)
Complete name                            : /Waco.M720.1x01.mkv
Format                                   : Matroska
Format version                           : Version 4
File size                                : 683 MiB
Duration                                 : 47 min 55 s
Overall bit rate mode                    : Variable
Overall bit rate                         : 1 993 kb/s
Movie name                               : Waco.M720.1x01.mkv
Encoded date                             : UTC 2018-12-03 23:52:51
Writing application                      : mkvmerge v29.0.0 ('Like It Or Not') 64-bit
Writing library                          : libebml v1.3.6 + libmatroska v1.4.9

Video
ID                                       : 1
Format                                   : AVC
Format/Info                              : Advanced Video Codec
Format profile                           : [email protected]
Format settings                          : CABAC / 4 Ref Frames
Format settings, CABAC                   : Yes
Format settings, ReFrames                : 4 frames
Codec ID                                 : V_MPEG4/ISO/AVC
Duration                                 : 47 min 55 s
Bit rate mode                            : Variable
Bit rate                                 : 1 799 kb/s
Maximum bit rate                         : 50.0 Mb/s
Width                                    : 1 280 pixels
Height                                   : 720 pixels
Display aspect ratio                     : 16:9
Frame rate mode                          : Constant
Frame rate                               : 23.976 (24000/1001) FPS
Color space                              : YUV
Chroma subsampling                       : 4:2:0
Bit depth                                : 8 bits
Scan type                                : Progressive
Bits/(Pixel*Frame)                       : 0.081
Stream size                              : 617 MiB (90%)
Title                                    : Waco.M720.1x01.mkv
Writing library                          : x264 core 155 r2901 7d0ff22
Encoding settings                        : cabac=1 / ref=4 / deblock=1:1:1 / analyse=0x3:0x133 / me=hex / subme=7 / psy=1 / psy_rd=0.40:0.00 / mixed_ref=1 / me_range=16 / chroma_me=1 / trellis=1 / 8x8dct=1 / cqm=0 / deadzone=21,11 / fast_pskip=0 / chroma_qp_offset=-2 / threads=18 / lookahead_threads=3 / sliced_threads=0 / nr=0 / decimate=1 / interlaced=0 / bluray_compat=0 / constrained_intra=0 / bframes=3 / b_pyramid=2 / b_adapt=1 / b_bias=0 / direct=3 / weightb=1 / open_gop=0 / weightp=2 / keyint=240 / keyint_min=23 / scenecut=40 / intra_refresh=0 / rc_lookahead=50 / rc=2pass / mbtree=1 / bitrate=1799 / ratetol=1.0 / qcomp=0.60 / qpmin=0 / qpmax=69 / qpstep=4 / cplxblur=20.0 / qblur=0.5 / vbv_maxrate=50000 / vbv_bufsize=62500 / nal_hrd=vbr / filler=0 / ip_ratio=1.40 / aq=1:1.00
Language                                 : English
Default                                  : Yes
Forced                                   : No
Color range                              : Limited
Color primaries                          : BT.709
Transfer characteristics                 : BT.709
Matrix coefficients                      : BT.709

Audio
ID                                       : 2
Format                                   : AC-3
Format/Info                              : Audio Coding 3
Commercial name                          : Dolby Digital
Codec ID                                 : A_AC3
Duration                                 : 47 min 55 s
Bit rate mode                            : Constant
Bit rate                                 : 192 kb/s
Channel(s)                               : 2 channels
Channel layout                           : L R
Sampling rate                            : 48.0 kHz
Frame rate                               : 31.250 FPS (1536 SPF)
Bit depth                                : 16 bits
Compression mode                         : Lossy
Stream size                              : 65.8 MiB (10%)
Title                                    : Waco.M720.1x01.mkv
Language                                 : Spanish
Service kind                             : Complete Main
Default                                  : Yes
Forced                                   : No


Descomprimir con winrar, 7zip o programa similar.







Miniserie compuesta de 6 partes que narra los trágicos eventos sucedidos en la secta religiosa liderada por David Koresh en Waco, Texas.









Descarga todo de un servidor FREE + 1 parte NO FREE

Para descargar tener abierto JDownloader v2, Mipony o programa similar














Código:
https://safelinking.net/ttux9ZF

Visita mi perfil para ver todos mis aportes