UFC Ultimate Fighting Championship
Deporte: artes marciales mixtas
Propietario: William Morris Endeavor
Fundación: noviembre de 1993
Tipo: Privada
Fundadores: Rorion Gracie, John Milius, Art Davie, Campbell McLaren, Bob Meyrowitz, David Isaacs
Locutor: Bruce Buffer





Calidad: HDTV 720p
Formato: MKV
Duración: 80 min.
Resolución: 1280x720p
Video: AVC x264
Fuente: Fox Sports 2
Audio: Español AAC 2.0 48000 Hz
Tamaño: 1,5 GB
Subtítulos: No
By: Parrix





Descomprimir con winrar, 7zip o programa similar



MediaInfo:

Código:
General
Complete name                            : UFC.FN.72Op.mkv
Format                                   : MPEG-4
Format profile                           : Base Media / Version 2
Codec ID                                 : mp42 (mp42)
File size                                : 2.07 GiB
Duration                                 : 2 h 19 min
Overall bit rate                         : 2 135 kb/s
Codirector                               : codirector
Production studio                        : studio
ContentType                              : Unknown Type
Encoded date                             : UTC 2019-03-31 05:00:25
Tagged date                              : UTC 2019-03-31 05:00:25
FileExtension_Invalid                    : mov mp4 m4v m4a m4b m4p m4r 3ga 3gpa 3gpp 3gp 3gpp2 3g2 k3g jpm jpx mqv ismv isma ismt f4a f4b f4v

Video
ID                                       : 1
Format                                   : AVC
Format/Info                              : Advanced Video Codec
Format profile                           : [email protected]
Format settings                          : CABAC / 2 Ref Frames
Format settings, CABAC                   : Yes
Format settings, ReFrames                : 2 frames
Format settings, GOP                     : M=3, N=25
Muxing mode                              : Container [email protected]
Codec ID                                 : avc1
Codec ID/Info                            : Advanced Video Coding
Duration                                 : 2 h 19 min
Bit rate                                 : 2 000 kb/s
Width                                    : 1 280 pixels
Height                                   : 720 pixels
Display aspect ratio                     : 16:9
Frame rate mode                          : Constant
Frame rate                               : 30.000 FPS
Color space                              : YUV
Chroma subsampling                       : 4:2:0
Bit depth                                : 8 bits
Scan type                                : Progressive
Bits/(Pixel*Frame)                       : 0.072
Stream size                              : 1.94 GiB (94%)
Language                                 : English
Encoded date                             : UTC 1953-03-30 05:00:25
Tagged date                              : UTC 1953-03-30 05:00:25
Codec configuration box                  : avcC

Audio
ID                                       : 2
Format                                   : AAC LC
Format/Info                              : Advanced Audio Codec Low Complexity
Codec ID                                 : mp4a-40-2
Duration                                 : 2 h 19 min
Bit rate mode                            : Constant
Bit rate                                 : 128 kb/s
Channel(s)                               : 2 channels
Channel layout                           : L R
Sampling rate                            : 44.1 kHz
Frame rate                               : 43.066 FPS (1024 SPF)
Compression mode                         : Lossy
Stream size                              : 127 MiB (6%)
Title                                    : Stereo
Language                                 : English
Default                                  : Yes
Alternate group                          : 1
Encoded date                             : UTC 1953-03-30 05:00:25
Tagged date                              : UTC 1953-03-30 05:00:25




La Ultimate Fighting Championship es la mayor empresa de artes marciales mixtas en el mundo, ? que alberga la mayor parte de los mejores peleadores del ranking en el deporte?? y produce eventos por todo el mundo.?









Se recomienda descargar con JDownloader v2, Mipony o programa similar



Descarga todo de un servidor FREE + 1 parte NO FREE











Código:
https://safelinking.net/QwqsdL9

Visita mi perfil para ver todos mis aportes