PUBLICIDAD
Wilas
  • Foro de Costa Rica fue, es y será el principal centro de comunicaciones del país. Donde miles de usuarios día a día se expresan en forma libre y comparten sus gustos e intereses. Somos una comunidad adulta. Muy pronto lanzaremos la nueva Revista con toda la galeta de fotos desde el 2006. Se les quiere de gratis, Sr.MarceloGigante.
Un nuevo video en cada visita

MotoGP - Temporada 2019 [MicroHD 1080p][Castellano][1/19][VS]



mot.png



Ficha-Tecnica5.png




Temporada 2019 de MotoGP
Emision: MotoGP
Proveedores de neumáticos: Michelin, Dunlop Tyres
Comentaristas y colaboradores: Álex Crivillé, Carlos Checa, Ernest Riveras, Izaskun Ruiz, Natacha Alfageme, Juan Martínez, Ricard Jové

Calidad: MicroHD 1080p
Formato: MKV
Resolución: 1920x1080p
Video: AVC
Audio: Castellano AC3 Stereo
Tamaño: 9 GB
Subtítulos: NO



MediaInfo:

Code:
General
Unique ID                   : 217659251955818282979425117378254899641 (0xA3BFA5A871078DE68B80157DD86689B9)
Complete name               : D:\M0t0GP.19.GP1.Qatar.1O8O.mkv
Format                      : Matroska
Format version              : Version 4 / Version 2
File size                   : 9.36 GiB
Duration                    : 1 h 14 min
Overall bit rate            : 17.9 Mb/s
Movie name                  : M0t0GP.19.GP1.Qatar.1O8O.mkv
Encoded date                : UTC 2019-03-11 16:00:02
Writing application         : mkvmerge v6.6.0 ('The Edge Of The In Between') built on Dec  1 2013 17:55:00
Writing library             : libebml v1.3.0 + libmatroska v1.4.1

Video
ID                          : 1
Format                      : AVC
Format/Info                 : Advanced Video Codec
Format profile              : [email protected]
Format settings             : CABAC / 3 Ref Frames
Format settings, CABAC      : Yes
Format settings, RefFrames  : 3 frames
Codec ID                    : V_MPEG4/ISO/AVC
Duration                    : 1 h 14 min
Bit rate                    : 17.9 Mb/s
Width                       : 1 920 pixels
Height                      : 1 080 pixels
Display aspect ratio        : 16:9
Frame rate mode             : Constant
Frame rate                  : 25.000 FPS
Color space                 : YUV
Chroma subsampling          : 4:2:0
Bit depth                   : 8 bits
Scan type                   : Progressive
Bits/(Pixel*Frame)          : 0.345
Stream size                 : 9.07 GiB (97%)
Title                       : eXvagos / d22
Writing library             : x264 core 148
Encoding settings           : cabac=1 / ref=3 / deblock=1:-1:-1 / analyse=0x3:0 / me=hex / subme=5 / psy=1 / psy_rd=1.00:0.00 / mixed_ref=0 / me_range=16 / chroma_me=1 / trellis=1 / 8x8dct=1 / cqm=0 / deadzone=21,11 / fast_pskip=0 / chroma_qp_offset=0 / threads=4 / lookahead_threads=1 / sliced_threads=0 / nr=0 / decimate=1 / interlaced=0 / bluray_compat=0 / constrained_intra=0 / bframes=2 / b_pyramid=0 / b_adapt=1 / b_bias=0 / direct=1 / weightb=0 / open_gop=0 / weightp=0 / keyint=24 / keyint_min=2 / scenecut=40 / intra_refresh=0 / rc=2pass / mbtree=0 / bitrate=17900 / ratetol=1.0 / qcomp=0.60 / qpmin=0 / qpmax=69 / qpstep=4 / cplxblur=20.0 / qblur=0.5 / ip_ratio=1.40 / pb_ratio=1.30 / aq=1:1.00
Language                    : Spanish
Default                     : Yes
Forced                      : No
Color range                 : Limited
Color primaries             : BT.709
Transfer characteristics    : BT.709
Matrix coefficients         : BT.709

Audio
ID                          : 2
Format                      : AC-3
Format/Info                 : Audio Coding 3
Format settings, Endianness : Big
Codec ID                    : A_AC3
Duration                    : 1 h 14 min
Bit rate mode               : Constant
Bit rate                    : 192 kb/s
Channel(s)                  : 2 channels
Channel positions           : Front: L R
Sampling rate               : 48.0 kHz
Frame rate                  : 31.250 FPS (1536 SPF)
Bit depth                   : 16 bits
Compression mode            : Lossy
Delay relative to video     : 80 ms
Stream size                 : 103 MiB (1%)
Title                       : eXvagos / d22
Language                    : Spanish
Service kind                : Complete Main
Default                     : Yes
Forced                      : No



Descomprimir con winrar, 7zip o programa similar.



Descripcion5.png




El Campeonato del Mundo de Motociclismo pero que popularmente recibe el nombre de la categoría principal de MotoGP, es la máxima competición mundial de motociclismo de velocidad.

La temporada 2019 del Campeonato del Mundo de Motociclismo es la 71ª edición desde que se iniciara el Mundial en 1949. Comenzará el 10 de marzo en Losail, (Catar) y terminará el 17 de noviembre en Valencia, (España). Para esta temporada finalmente se optó por no agregar mas carreras al calendario, después de que se había propuesto agregar a México y Finlandia.



Capturas5.png



M0t0-GP-1-O.jpg




Descarga todo de un servidor FREE + 1 parte NO FREE

Para descargar tener abierto JDownloader v2, Mipony o programa similar


Mipony_Jdownloader.png


Download5.png


Links_Intercambiables.png


Users-Cloud.png

UpLoaded.png

KatFile.png

Rapid-Gator.png





GP 1 - Qatar



qat.jpg




Carrera MotoGP:




[HIDE]
Code:
https://safelinking.net/ug5fq73
[/HIDE]




Carrera Moto2:




[HIDE]
Code:
https://safelinking.net/f7DHhJA
[/HIDE]




Carrera Moto3:




[HIDE]
Code:
https://safelinking.net/8LJJZaJ
[/HIDE]



Visita mi perfil para ver todos mis aportes


Agradecer_solo_cuesta_1_click_Agradece_y_ser_s_agradecido.gif


 


GP 3 - Gran Premio de las Américas



ame.jpg




Carrera MotoGP:




[HIDE]
Code:
https://safelinking.net/6Y92YK4
[/HIDE]




Carrera Moto2:




[HIDE]
Code:
https://safelinking.net/jRhK4cn
[/HIDE]




Carrera Moto3:




[HIDE]
Code:
https://safelinking.net/A1G4Tgj
[/HIDE]
 
PUBLICIDAD
FACTURA ELECTRÓNICA
Presentamos sus declaraciones del IVA D104, de ALQUILERES D125, así como su renta D101 desde ₡9000 al mes.
Active su PLAN PREPAGO por $9.99 y timbre hasta 50 documentos electrónicos. Sin mensualidades, ni anualidades con el sistema líder en el país.
Última hora noticias 24/7 de Costa Rica Hoy y el mundo
Arriba Pie